<?xml version="1.0" standalone="no"?>
<!DOCTYPE svg PUBLIC "-//W3C//DTD SVG 1.1//EN" "http://www.w3.org/Graphics/SVG/1.1/DTD/svg11.dtd" >
<!--
2014-9-9: Created.
-->
<svg xmlns="http://www.w3.org/2000/svg">
<metadata>
Created by FontForge 20110222 at Tue Sep  9 14:41:30 2014
 By Ubuntu
Created by Ubuntu with FontForge 2.0 (http://fontforge.sf.net)
</metadata>
<defs>
<font id="iconvault" horiz-adv-x="512" >
  <font-face 
    font-family="iconvault"
    font-weight="500"
    font-stretch="normal"
    units-per-em="512"
    panose-1="2 0 6 9 0 0 0 0 0 0"
    ascent="448"
    descent="-64"
    bbox="3.27342 -57.9941 511.999 438.052"
    underline-thickness="25.6"
    underline-position="-51.2"
    unicode-range="U+F100-F11A"
  />
    <missing-glyph />
    <glyph glyph-name="uniF100" unicode="&#xf100;" 
d="M256.041 87.583l-0.301758 -0.296875l-189.799 189.798l18.0996 18.0996l171.965 -171.966l171.976 171.976l18.0996 -18.1045l-189.768 -189.768z" />
    <glyph glyph-name="uniF101" unicode="&#xf101;" 
d="M332.8 149.602c39.6904 -3.64062 70.8916 -37.0898 70.8916 -77.7061c0 -43.0596 -35.0254 -78.0801 -78.0801 -78.0801c-30.6328 0 -57.1084 17.7764 -69.8984 43.499c-12.7793 -25.7227 -39.2695 -43.499 -69.8975 -43.499
c-43.0547 0 -78.0801 35.0205 -78.0801 78.0801c0 39.9404 30.167 72.9287 68.9043 77.4912v194.529c-0.43457 3.34277 -0.742188 6.72168 -0.742188 10.1836c0 35.21 23.4395 65.0234 55.5264 74.7256c7.3623 2.30469 15.1865 3.55371 23.2959 3.55371
c43.0488 0 78.0801 -35.0264 78.0801 -78.0801v-204.697zM202.24 354.299v-8.6377c4.05469 -24.9346 25.6768 -44.0469 51.7373 -44.0469c28.9277 0 52.4805 23.542 52.4805 52.4795c0 28.9385 -23.542 52.4805 -52.4805 52.4805
c-5.19141 0 -10.2041 -0.783203 -14.9453 -2.19629c-21.2988 -6.6875 -36.792 -26.6094 -36.792 -50.0791zM185.815 19.4102c28.9326 0 52.4795 23.542 52.4795 52.4795c0 28.9287 -23.542 52.4805 -52.4795 52.4805c-28.9385 0 -52.4805 -23.5518 -52.4805 -52.4805
c0 -28.9375 23.542 -52.4795 52.4805 -52.4795zM255.713 106.471c10.1328 20.3877 28.877 35.7168 51.4873 41.2109v149.447c-13.9629 -13.0557 -32.6504 -21.1152 -53.2227 -21.1152c-19.8555 0 -37.9443 7.51172 -51.7373 19.7637v-147.589
c23.501 -5.04883 43.0439 -20.7256 53.4727 -41.7178zM325.611 19.4102c28.9385 0 52.4805 23.542 52.4805 52.4795c0 28.9287 -23.542 52.4805 -52.4805 52.4805c-28.9277 0 -52.4795 -23.5518 -52.4795 -52.4805c0 -28.9375 23.5518 -52.4795 52.4795 -52.4795z" />
    <glyph glyph-name="uniF102" unicode="&#xf102;" 
d="M384.814 387.753l66.0068 -66.002l-283.336 -283.33l-82.043 -14.6592l16.1436 80.7578zM414.617 321.751l-29.8027 29.793l-21.6172 -21.6162l29.7988 -29.7988zM155.074 62.208l219.827 219.822l-29.7979 29.7979l-219.93 -219.93l-7.26562 -36.3311z" />
    <glyph glyph-name="uniF103" unicode="&#xf103;" 
d="M52.5518 299.484v70.6201h407.695v-70.6201h-407.695zM52.5518 168.842v70.6211h407.695v-70.6211h-407.695zM52.5518 38.1953v70.6201h407.695v-70.6201h-407.695z" />
    <glyph glyph-name="uniF104" unicode="&#xf104;" 
d="M507.33 -39.8896l-18.0986 -18.0996l-140.365 140.375c-32.624 -27.5352 -74.7314 -44.1807 -120.668 -44.1807c-103.321 0 -187.382 84.0605 -187.382 187.382c0 103.322 84.0605 187.382 187.382 187.382s187.382 -84.0596 187.382 -187.382
c0 -48.1943 -18.3037 -92.1855 -48.3018 -125.419zM228.198 63.8057c89.2061 0 161.782 72.5762 161.782 161.781c0 89.2061 -72.5762 161.782 -161.782 161.782s-161.781 -72.5762 -161.781 -161.782c0 -89.2051 72.5752 -161.781 161.781 -161.781z" />
    <glyph glyph-name="uniF105" unicode="&#xf105;" 
d="M511.774 229.013c3.76367 -26.8389 -40.2227 -50.7441 -97.5049 -69.1611c-14.9092 -72.6836 -78.5508 -124.893 -153.364 -124.893c-57.3652 0 -110.633 32.1182 -137.79 82.3301c-10.5879 0.168945 -20.7354 0.578125 -30.3662 1.25977
c-57.0879 3.98828 -86.2871 16.1895 -89.2568 37.3193c-4.76172 33.8125 69.4219 58.0098 104.289 68.5615c15.1396 70.6357 78.0283 123.761 153.118 123.761c61.5996 0 114.468 -33.2031 139.858 -83.5781c74.3477 -1.87402 107.786 -12.667 111.017 -35.5996z
M129.89 191.575v0l0.00976562 -1.3877c0 -1.16699 0 -2.17578 0.00488281 -3.09766c9.12891 -0.333008 18.1299 -0.491211 26.8799 -0.491211c38.9531 0 77.1738 2.90332 114.453 8.61133c3.43066 30.5664 21.0381 54.6611 46.0078 60.9131
c19.6357 4.93066 46.29 -2.09375 66.248 -34.1709c1.6123 0.532227 3.25098 1.03906 4.8584 1.58203c-12.5645 57.9785 -64.5732 99.0518 -127.452 99.0518c-72.2373 0 -131.01 -58.7725 -131.01 -131.011zM364.923 215.859
c-8.0332 16.0713 -23.3418 25.6406 -42.0967 21.4326c-17.2188 -5.74512 -26.5879 -21.5098 -30.6123 -39.0352c20.3311 3.91113 53.0127 11.9756 72.709 17.6025zM260.899 60.5547c57.7588 0 107.469 37.248 124.616 90.7617
c-37.1865 -10.1582 -77.2354 -18.1094 -112.322 -23.2705c7.13672 -5.8418 11.7197 -14.7305 11.7197 -24.6572c0 -17.583 -14.3008 -31.8828 -31.8828 -31.8828c-17.5713 0 -31.8672 14.2998 -31.8672 31.8828c0 7.11621 2.37109 13.6699 6.32324 18.9688
c-25.8662 -2.66699 -50.9795 -4.32129 -74.5518 -4.91016c24.207 -35.0615 64.7061 -56.8926 107.965 -56.8926zM268.508 103.537c0 8.4834 -6.91211 15.3799 -15.4053 15.3799c-8.48438 0 -15.3809 -6.89648 -15.3809 -15.3799
c0 -8.48926 6.89648 -15.3965 15.3809 -15.3965c8.48828 0 15.4053 6.90723 15.4053 15.3965zM264.115 152.602c136.729 19.2363 223.247 61.2354 220.969 75.1211c-3.46094 11.7549 -19.3896 18.2012 -79.5957 20.6641c5.35059 -12.2471 11.8584 -32.9111 11.8584 -32.9111
l-11.6631 -4.6084c-78.3926 -27.8174 -162.611 -41.9277 -250.327 -41.9277c-12.7334 0 -25.9795 0.328125 -39.3633 0.998047l-10.4854 0.522461l-0.123047 2.44238c-1.10547 7.40918 0.415039 31.3857 0.46582 33.0088
c-54.3379 -14.541 -78.4482 -34.8262 -76.8154 -46.8174c8.1416 -12.5801 94.8379 -26.2295 235.08 -6.49219zM202.716 211.344c-21.8105 0 -39.5566 17.7402 -39.5615 39.5566c0 21.8164 17.7451 39.5625 39.5615 39.5625s39.5625 -17.751 39.5625 -39.5625
c0 -21.8164 -17.7461 -39.5566 -39.5625 -39.5566zM206.397 267.008c-11.0439 0 -20.0195 -8.98047 -20.0244 -20.0293c0 -11.0332 8.98047 -20.0195 20.0244 -20.0195c11.0488 0 20.0293 8.98633 20.0293 20.0195c0 11.0488 -8.98047 20.0293 -20.0293 20.0293z" />
    <glyph glyph-name="uniF106" unicode="&#xf106;" 
d="M255.416 402.386c103.312 0 187.372 -84.0596 187.382 -187.387c0 -103.321 -84.0596 -187.382 -187.382 -187.382c-103.321 0 -187.382 84.0605 -187.382 187.382c0 103.327 84.0605 187.387 187.382 187.387zM255.416 53.2275
c89.2061 0 161.771 72.5605 161.782 161.776c0 89.2109 -72.5811 161.787 -161.782 161.787c-89.2051 0 -161.781 -72.5811 -161.781 -161.787c0 -89.2051 72.5762 -161.776 161.781 -161.776zM271.509 244.055v-117.76h38.9932v-25.5996h-106.557v25.5996h38.6709v92.1602
h-29.2812l12.3184 25.5996h16.9629h7.41406h21.4785zM228.203 304.963c0 17.0599 8.52995 25.5898 25.5898 25.5898c17.0599 0 25.5898 -8.52994 25.5898 -25.5898s-8.52994 -25.5898 -25.5898 -25.5898c-17.0599 0 -25.5898 8.52994 -25.5898 25.5898z" />
    <glyph glyph-name="uniF107" unicode="&#xf107;" 
d="M457.815 38.8203h-399.36c-23.0557 0 -41.8096 18.7539 -41.8096 41.8096c0 23.0605 18.7539 41.8154 41.8096 41.8154h14.8379c-12.8105 20.1309 -19.6709 43.5146 -19.6709 67.9521c0 69.9746 56.9287 126.904 126.904 126.904
c58.1992 0 108.754 -40.1309 122.926 -95.3955c3.30273 0.480469 6.62988 0.72168 9.95801 0.72168c22.667 0 43.6787 -10.8906 56.8789 -28.6621c8.22754 4.40332 17.459 6.74316 26.9971 6.74316c31.6875 0 57.4775 -25.7842 57.4775 -57.4766
c0 -7.18359 -1.35742 -14.2236 -3.91211 -20.7881h6.95312c23.0557 0 41.8096 -18.7539 41.8096 -41.8145c0.0107422 -23.0557 -18.7441 -41.8096 -41.7988 -41.8096zM58.4551 96.8447c-8.93945 0 -16.21 -7.27539 -16.21 -16.2148s7.27051 -16.21 16.21 -16.21h399.36
c8.93945 0 16.21 7.27051 16.21 16.21s-7.27051 16.2148 -16.21 16.2148h-31.1299c-5.33008 0 -10.1016 3.30762 -11.9805 8.29492c-1.87402 4.99121 -0.460938 10.6182 3.54785 14.1357c6.9375 6.07715 10.916 14.8076 10.916 23.957
c0 17.582 -14.3008 31.8818 -31.877 31.8818c-8.2334 0 -16.0615 -3.15918 -22.0469 -8.89844c-3.00586 -2.87793 -7.22461 -4.13184 -11.3105 -3.32324c-4.08594 0.793945 -7.53125 3.5332 -9.23633 7.33691c-7.29102 16.2822 -23.501 26.8037 -41.2881 26.8037
c-5.21191 0 -10.4287 -0.942383 -15.5029 -2.7959c-3.62988 -1.32617 -7.66992 -0.942383 -10.9873 1.0498c-3.31836 1.99121 -5.55566 5.37598 -6.08789 9.21094c-6.91211 49.7207 -50.0322 87.2139 -100.306 87.2139c-55.8594 0 -101.305 -45.4453 -101.305 -101.304
c0 -27.0908 10.5576 -52.5469 29.7373 -71.6953c3.66602 -3.65625 4.7666 -9.16016 2.78516 -13.9521c-1.98145 -4.78711 -6.65137 -7.90527 -11.832 -7.90527h-41.457v-0.0107422z" />
    <glyph glyph-name="uniF108" unicode="&#xf108;" 
d="M473.6 26.4502h-436.055v104.965l4.58203 3.83496c2.72461 2.27832 68.373 55.9004 213.018 55.9004c144.6 0 211.057 -53.5654 213.812 -55.8438l4.64355 -3.84082v-105.016zM63.1445 52.0498h384.855v66.8311c-16.7217 11.1621 -78.9092 46.6689 -192.855 46.6689
c-113.843 0 -175.421 -35.4561 -192 -46.6172v-66.8828zM255.724 224.436c-55.7979 0 -101.197 45.3936 -101.197 101.196s45.3994 101.197 101.197 101.197s101.202 -45.3945 101.202 -101.197s-45.3945 -101.196 -101.202 -101.196zM255.724 401.229
c-41.6816 0 -75.5967 -33.915 -75.5967 -75.5967s33.915 -75.5967 75.5967 -75.5967c41.6865 0 75.6016 33.915 75.6016 75.5967s-33.915 75.5967 -75.6016 75.5967z" />
    <glyph glyph-name="uniF109" unicode="&#xf109;" 
d="M151.583 190.674l-0.302734 0.3125l189.804 189.793l18.0996 -18.0986l-171.961 -171.966l171.971 -171.971l-18.1045 -18.1045l-189.768 189.768z" />
    <glyph glyph-name="uniF10A" unicode="&#xf10a;" 
d="M507.33 -39.8896l-18.0986 -18.1045l-138.973 138.982c-32.5986 -27.4277 -74.6182 -43.9912 -120.447 -43.9912c-103.327 0 -187.382 84.0605 -187.382 187.387c0 103.327 84.0596 187.382 187.382 187.382c103.321 0 187.382 -84.0596 187.382 -187.382
c0 -48.2969 -18.3711 -92.3799 -48.4863 -125.64zM229.812 62.6025c89.2051 0 161.776 72.5703 161.781 161.786c0 89.2061 -72.5762 161.782 -161.781 161.782c-89.2061 0 -161.782 -72.5762 -161.782 -161.782c0 -89.2109 72.5762 -161.786 161.782 -161.786z
M242.606 326.364v-89.1748h89.1748v-25.6006h-89.1748v-89.1748h-25.6006v89.1748h-89.1699v25.6006h89.1699v89.1748h25.6006z" />
    <glyph glyph-name="uniF10B" unicode="&#xf10b;" 
d="M75.5195 336.64h386.561v-281.6h-386.561v281.6zM436.121 311.04h-333.403l166.113 -117.463zM101.12 80.6396h335.36v199.373l-167.706 -117.755l-167.654 118.559v-200.177z" />
    <glyph glyph-name="uniF10C" unicode="&#xf10c;" 
d="M255.918 412.452c-69.6631 0 -126.336 -56.6738 -126.341 -126.336c0 -75.9502 77.9932 -214.729 126.259 -290.709c48.1641 77.7676 126.434 219.197 126.434 290.709c0 69.6621 -56.6836 126.336 -126.352 126.336zM255.918 438.052v0
c83.7939 0 151.951 -68.1621 151.951 -151.936c0 -109.477 -151.726 -337.757 -151.726 -337.757s-152.167 221.456 -152.167 337.757c0 83.7783 68.1631 151.936 151.941 151.936zM255.918 338.027c-28.6211 0 -51.9111 -23.291 -51.917 -51.9062
c0 -28.6367 23.291 -51.9268 51.917 -51.9268c28.6211 0 51.917 23.3008 51.9326 51.9365c0 28.6113 -23.2959 51.8965 -51.9326 51.8965zM255.918 363.628v0c42.752 0 77.5322 -34.7754 77.5322 -77.5117c-0.0205078 -42.752 -34.79 -77.5273 -77.5322 -77.5273
c-42.7471 0 -77.5166 34.7754 -77.5166 77.5273c0 42.7363 34.7695 77.5117 77.5166 77.5117z" />
    <glyph glyph-name="uniF10D" unicode="&#xf10d;" 
d="M413 325.182c23.5518 -25.9482 6.46094 -77.1436 -39.7314 -119.112c-28.7588 -26.1064 -61.6807 -41.7021 -88.0645 -41.7021c-9.65625 0 -18.1396 2.17578 -25.1387 6.27246c-1.75586 -1.1416 -3.86035 -2.41211 -6.38965 -3.79395
c-3.91699 -2.16602 -8.67383 -4.58301 -13.8398 -7.05566c-5.05859 -2.50879 -10.5371 -5.26855 -15.4111 -8.41211c-4.78711 -3.2666 -8.85254 -6.91699 -12.0879 -11.2793c-3.24121 -4.32617 -5.44824 -10.1123 -7.52148 -16.6504
c-0.614258 -3.54297 -1.91016 -7.01953 -2.19629 -10.6396c-0.282227 -1.80176 -0.552734 -3.60449 -0.834961 -5.42188c-0.317383 -1.89941 -0.394531 -4.55176 -0.598633 -6.79883l-0.527344 -7.06641l-0.958008 -7.92578
c-0.424805 -5.92383 -2.375 -11.6934 -4.01367 -17.4434c-4.32617 -11.1211 -10.2246 -21.7451 -18.1045 -29.7676c-3.60449 -4.39844 -7.9209 -7.7207 -11.9658 -11.2441c-4.25977 -3.14355 -8.47852 -6.21484 -12.8203 -8.73926
c-8.72949 -4.9668 -17.3926 -8.94434 -25.8408 -11.6123c-4.17188 -1.5 -8.30957 -2.60059 -12.3232 -3.54297c-3.96289 -1.10547 -7.87988 -1.7666 -11.6123 -2.37012c-3.70215 -0.737305 -7.31152 -1.11133 -10.7314 -1.39355
c-3.41992 -0.306641 -6.62012 -0.660156 -9.67188 -0.706055c-6.02637 -0.333008 -11.3818 -0.0458984 -15.7188 0.173828c-4.34668 0.113281 -7.61328 0.850586 -9.91211 1.0498c-2.27344 0.347656 -3.49121 0.522461 -3.49121 0.522461l-0.0361328 0.46582
s1.16211 0.374023 3.35352 1.08008c2.16602 0.707031 5.49414 1.5459 9.42578 2.99023c1.96582 0.666016 4.13672 1.40234 6.49707 2.21191c2.33496 0.885742 4.86914 1.86328 7.55762 2.8877c2.70312 0.926758 5.49902 2.18652 8.42773 3.45605
c2.94922 1.1875 5.96973 2.64648 9.07715 4.15723c3.14355 1.43359 6.33887 3.05176 9.56445 4.84375c1.6123 0.860352 3.25586 1.74609 4.91992 2.62598c1.59766 0.993164 3.22559 1.99219 4.86914 3.00586c3.35352 1.87402 6.54883 4.12695 9.74414 6.44629
c3.3584 2.09375 6.26172 4.8125 9.39941 7.27539c2.99609 2.60547 5.83203 5.37598 8.5918 8.17676c2.39062 3.07129 5.31934 5.77539 7.23438 9.0625c4.61328 6.14844 7.3623 13.0049 9.375 19.8242c0.604492 3.53809 1.74609 6.8916 1.62793 10.5732l0.378906 6.2666
l0.328125 7.08594c0.15332 2.4375 0.117188 4.49512 0.429688 7.21973c0.415039 2.80566 0.824219 5.58594 1.22852 8.35547c0.650391 5.5957 2.37109 10.793 3.82031 15.9688c3.6709 10.3633 8.87207 20.6133 16.7168 28.585
c7.72559 7.96191 16.7676 13.1025 24.8008 16.2051c8.08496 3.06738 15.1553 4.37305 21.1914 5.43262c5.13086 0.824219 9.4668 1.34668 13.1533 1.77637c-6.6709 13.0508 -6.41016 30.2334 1.19824 49.6797c8.10547 20.7158 23.8232 42.3418 44.2627 60.9023
c28.7539 26.1064 61.6758 41.6924 88.0635 41.6924c14.3672 0 26.2354 -4.7002 34.3047 -13.5938zM354.253 227.006c36.7158 33.3311 46.9248 69.1602 37.8262 79.1855c-3.25098 3.58398 -9.06738 4.33105 -13.3838 4.33105c-18.9746 0 -46.085 -13.4854 -69.0684 -34.3545
c-17.0244 -15.4521 -30.4893 -33.7822 -36.9463 -50.2734c-5.11426 -13.0762 -5.44727 -23.8848 -0.879883 -28.9072c3.25098 -3.58984 9.07227 -4.3418 13.3828 -4.3418c18.9648 0 46.0801 13.4912 69.0693 34.3604z" />
    <glyph glyph-name="uniF10E" unicode="&#xf10e;" 
d="M497.024 192.041l0.306641 -0.301758l-189.804 -189.799l-18.0986 18.0996l171.976 171.965l-171.976 171.976l18.0938 18.0996l189.772 -189.768z" />
    <glyph glyph-name="uniF10F" unicode="&#xf10f;" 
d="M278.052 -3.89648c-57.5127 0 -104.72 45.0254 -107.464 102.508c-0.788086 16.415 2.15039 32.5938 8.55566 47.5029c-47.7695 22.4824 -79.4619 69.2842 -82.0225 122.859c-1.83301 38.2725 11.3457 74.9619 37.1152 103.317
c25.7686 28.3545 61.0303 44.9785 99.3076 46.8066c79.6211 3.86035 146.34 -57.5127 150.113 -136.417c0.235352 -4.88965 0.214844 -9.7998 -0.0615234 -14.7051c3.59961 0.394531 7.13672 0.675781 10.5518 0.839844c38.9736 1.9248 71.6396 -28.1602 73.4932 -66.7852
c0.895508 -18.7393 -5.55566 -36.7002 -18.1709 -50.5859c-12.6162 -13.8906 -29.8809 -22.0312 -48.6152 -22.9268c-5.60059 -0.266602 -11.7959 0.404297 -18.4062 1.96582c1.78223 -6.93262 2.85742 -14.1416 3.21094 -21.5859
c1.37695 -28.7129 -8.52051 -56.2539 -27.8633 -77.5371c-19.3389 -21.2793 -45.8037 -33.7617 -74.5273 -35.1289c-1.75098 -0.0869141 -3.48633 -0.12793 -5.2168 -0.12793zM240.502 393.667c-1.91016 0 -3.81934 -0.046875 -5.73926 -0.138672
c-31.4473 -1.5 -60.416 -15.1602 -81.583 -38.4512c-21.166 -23.2959 -31.9941 -53.4375 -30.4893 -84.8799c2.29395 -48.0195 33.0801 -89.4199 78.4336 -105.477c3.625 -1.28027 6.4873 -4.13184 7.78223 -7.75195c1.29492 -3.61914 0.896484 -7.63379 -1.09082 -10.9307
c-8.41211 -13.9365 -12.4414 -29.9111 -11.6582 -46.2031c2.15527 -45.1377 40.2432 -80.2559 85.8887 -78.0342c21.8828 1.04492 42.0605 10.5576 56.8057 26.7725c14.7402 16.2256 22.2871 37.2119 21.2324 59.1006c-0.685547 14.3662 -4.86328 27.4941 -12.4209 39.0244
c-3.21973 4.91016 -2.68262 11.3867 1.30078 15.6982c3.9834 4.31055 10.3984 5.34961 15.5498 2.54395c13.25 -7.25488 26.0654 -11.2998 35.1123 -10.8594c11.8994 0.568359 22.8711 5.74023 30.8838 14.5664c8.01855 8.82715 12.1191 20.2451 11.5508 32.1543
c-1.17188 24.5547 -21.9697 43.6475 -46.6992 42.4443c-7.50586 -0.358398 -15.7803 -1.40332 -23.9209 -3.01562c-4.16797 -0.829102 -8.4375 0.460938 -11.458 3.41992c-3.01562 2.96484 -4.37305 7.22949 -3.63086 11.3926
c1.57227 8.73926 2.15039 17.623 1.73047 26.4141c-3.00488 62.9248 -54.6553 112.21 -117.58 112.21zM439.465 311.045c-29.0049 0 -52.6025 23.5986 -52.6025 52.5977c0 29 23.5977 52.6035 52.6025 52.6035c29 0 52.5928 -23.5986 52.5928 -52.5977
c0 -29 -23.5928 -52.6035 -52.5928 -52.6035zM439.465 393.062c-16.1738 0 -29.332 -13.1533 -29.332 -29.333c0 -16.1787 13.1582 -29.332 29.332 -29.332c16.1689 0 29.3271 13.1533 29.3271 29.332c0 16.1797 -13.1582 29.333 -29.3271 29.333zM135.762 -42.9053
c-21.5293 0 -39.0449 17.5156 -39.0449 39.0449s17.5156 39.0449 39.0449 39.0449c21.5303 0 39.04 -17.5156 39.04 -39.0449s-17.5098 -39.0449 -39.04 -39.0449zM135.517 13.4248c-9.75879 0 -17.6953 -7.93652 -17.6953 -17.6953
c0 -9.75781 7.93652 -17.6992 17.6953 -17.6992c9.75781 0 17.6943 7.94141 17.6943 17.6992c0 9.75879 -7.93652 17.6953 -17.6943 17.6953zM85.7295 44.9131c-35.3691 0 -64.1387 28.7637 -64.1387 64.1221c0 35.3643 28.7744 64.1387 64.1387 64.1387
c35.3584 0 64.1279 -28.7744 64.1279 -64.1387c0 -35.3535 -28.7695 -64.1221 -64.1279 -64.1221zM85.7295 147.579c-21.248 0 -38.5381 -17.29 -38.5381 -38.5381c0 -21.2432 17.29 -38.5234 38.5381 -38.5234c21.2422 0 38.5273 17.2803 38.5273 38.5234
c0 21.248 -17.2793 38.5381 -38.5273 38.5381z" />
    <glyph glyph-name="uniF110" unicode="&#xf110;" 
d="M254.674 295.138l0.3125 0.301758l189.793 -189.804l-18.0986 -18.0986l-171.961 171.96l-171.976 -171.971l-18.1045 18.1045l189.768 189.768z" />
    <glyph glyph-name="uniF111" unicode="&#xf111;" 
d="M468.588 356.081l0.00488281 -259.651h-57.8662v-57.8604h-366.388v259.64h57.8613v57.8721h366.388zM385.126 64.1689v208.44h-315.187v-208.44h315.187zM442.987 122.03l0.00488281 208.45h-315.187v-32.2715h282.921v-176.179h32.2607z" />
    <glyph glyph-name="uniF112" unicode="&#xf112;" 
d="M255.186 24.0791l-7.74609 5.43262c-6.9375 4.8584 -169.892 120.146 -169.892 216.709c0 61.0615 36.9971 103.706 89.9629 103.706c29.1123 0 59.8584 -13.3584 87.6748 -37.8779c27.6895 24.3711 58.3682 37.6523 87.4912 37.6523
c53.0684 0 90.1377 -42.5527 90.1377 -103.476c0 -96.5576 -162.949 -211.85 -169.887 -216.709zM167.511 322.924c-37.6572 0 -62.96 -30.8281 -62.96 -76.7031c0 -64.8809 102.271 -153.492 150.63 -189.021c48.3535 35.5488 150.625 124.212 150.625 189.021
c0 45.7422 -25.3691 76.4727 -63.1289 76.4727c-25.3037 0 -52.9873 -13.7471 -77.9473 -38.707l-9.54883 -9.54883l-9.54883 9.54883c-25.1084 25.1084 -52.8535 38.9375 -78.1211 38.9375z" />
    <glyph glyph-name="uniF113" unicode="&#xf113;" 
d="M323.62 396.473l143.313 -56.2178v-347.494l-143.304 56.2119l-130.345 -51.2002l-143.365 56.2178v347.5l143.354 -56.2178zM197.975 319.611v-292.496l120.32 47.2627v292.496zM75.5195 363.95v-292.501l112.216 -44.0107v292.505zM441.334 30.29v292.506
l-112.799 44.252v-292.506z" />
    <glyph glyph-name="uniF114" unicode="&#xf114;" 
d="M66.7812 20.0371l362.035 362.035l18.0986 -18.0986l-362.035 -362.035zM84.8867 382.068l362.035 -362.035l-18.0977 -18.0977l-362.035 362.035z" />
    <glyph glyph-name="uniF115" unicode="&#xf115;" 
d="M398.233 312.448c25.6211 -13 43.2588 -39.5371 43.2646 -70.1855v-165.114h-0.353516c-3.58398 -40.1201 -37.335 -71.6807 -78.3672 -71.6807c-43.4072 0 -78.7197 35.3076 -78.7197 78.7207v103.92c-7.57227 1.34668 -15.2783 2.10449 -23.04 2.10449
c-8.66797 0 -17.2188 -0.926758 -25.5996 -2.58496v-103.435c0 -43.4121 -35.3135 -78.7197 -78.7207 -78.7197s-78.7197 35.3076 -78.7197 78.7197c0 1.94043 0.15332 3.85059 0.291992 5.75977h-0.291992v152.315c0 30.9805 18.0322 57.7588 44.1143 70.5996v28.9736
c0 31.2422 25.415 56.6631 56.6631 56.6631c31.2363 0 56.6572 -25.416 56.6572 -56.6631v-69.2227c3.90137 9.18066 12.9336 15.6475 23.5371 15.6475c11.7705 0 21.5859 -7.97266 24.6172 -18.7754c0.450195 -0.0664062 0.900391 -0.15918 1.35156 -0.230469v76.5752
c0 31.2422 25.4209 56.6572 56.6572 56.6572c31.2373 0 56.6582 -25.4102 56.6582 -56.6572v-33.3877zM341.575 376.894c-17.126 0 -31.0625 -13.9268 -31.0625 -31.0527v-44.7998c13.9111 12.3848 32.21 19.9473 52.2598 19.9473
c3.34863 0 6.62012 -0.28125 9.86133 -0.686523v25.5342c0 17.126 -13.9316 31.0576 -31.0586 31.0576zM147.691 341.842h-0.00488281v-21.4062c2.95898 0.337891 5.9541 0.552734 9.00586 0.552734c20.4648 0 39.1172 -7.84863 53.1201 -20.7002v41.5537
c0 17.127 -13.9316 31.0635 -31.0576 31.0635c-17.127 0 -31.0635 -13.9316 -31.0635 -31.0635zM156.692 31.0684c29.292 0 53.1201 23.8281 53.1201 53.1201c0 29.291 -23.8281 53.1201 -53.1201 53.1201c-29.291 0 -53.1201 -23.8291 -53.1201 -53.1201
c0 -29.292 23.8291 -53.1201 53.1201 -53.1201zM209.812 142.11h0.00488281v37.6533c-7.62305 -3.24121 -15.001 -7.13281 -21.9697 -11.8125c-2.15039 -1.43848 -4.64355 -2.1709 -7.1377 -2.1709c-2.06836 0 -4.13672 0.501953 -6.02051 1.51074
c-4.17285 2.22168 -6.7793 6.55859 -6.7793 11.2891v55.3779c0 4.26562 2.125 8.25391 5.66797 10.6299c10.2656 6.88574 21.2275 12.4053 32.6455 16.6289c-7.64453 19.9434 -26.9268 34.166 -49.5312 34.166c-29.291 0 -53.1201 -23.8281 -53.1201 -53.1201v-100.152
c14.0186 12.8672 32.6406 20.7979 53.1201 20.7979c20.4805 0 39.1016 -7.92578 53.1201 -20.7979zM193.511 200.576c20.9814 10.0195 43.9502 15.2373 67.5068 15.2373c21.0332 0 41.7744 -4.21973 60.9893 -12.3193v27.0693
c-18.7441 9.83105 -39.6846 14.9922 -60.9893 14.9922c-23.9414 0 -47.1396 -6.4209 -67.5068 -18.6318v-26.3477zM328.243 171.72c-5.9541 3.54785 -12.1904 6.54883 -18.5908 9.09863v-38.7129c14.0186 12.8672 32.6396 20.7979 53.1201 20.7979
c20.4795 0 39.1016 -7.92578 53.1201 -20.7979v100.157c0 29.292 -23.8281 53.1201 -53.1201 53.1201c-22.2725 0 -41.3594 -13.7979 -49.2393 -33.2793c9.65137 -3.41016 18.9746 -7.77246 27.8271 -13.0518c3.87598 -2.30371 6.24707 -6.47656 6.24707 -10.9873v-55.3525
c0 -4.60254 -2.47852 -8.85254 -6.48242 -11.1309c-4.00391 -2.27246 -8.92871 -2.22168 -12.8818 0.138672zM362.772 31.0684c29.292 0 53.1201 23.8281 53.1201 53.1201c0 29.291 -23.8281 53.1201 -53.1201 53.1201s-53.1201 -23.8291 -53.1201 -53.1201
c0 -29.292 23.8281 -53.1201 53.1201 -53.1201z" />
    <glyph glyph-name="uniF116" unicode="&#xf116;" 
d="M380.452 400.829c-20.1221 -3.93164 -98.3711 -25.2109 -202.957 -129.792c-104.643 -104.637 -126.991 -183.967 -131.236 -204.518l80.0566 -80.0518l72.2686 72.2744l-34.6621 34.6621l-18.498 18.498l18.5029 18.5088l152.704 152.684l18.499 18.499
l18.5029 -18.5039l34.6475 -34.6465l72.2793 72.2783zM389.99 428.298v0l107.571 -107.576l-109.281 -109.286l-53.1562 53.1504l-152.698 -152.688l53.1611 -53.1553l-109.276 -109.271l-107.679 107.669l0.680664 6.80957
c0.389648 3.91113 11.0391 96.9521 139.679 225.592c128.722 128.728 220.457 137.861 224.302 138.188z" />
    <glyph glyph-name="uniF117" unicode="&#xf117;" 
d="M507.33 -39.8896l-18.0986 -18.1045l-138.973 138.982c-32.5986 -27.4277 -74.6182 -43.9912 -120.447 -43.9912c-103.327 0 -187.382 84.0605 -187.382 187.387c0 103.327 84.0596 187.382 187.382 187.382c103.321 0 187.382 -84.0596 187.382 -187.382
c0 -48.2969 -18.3711 -92.3799 -48.4863 -125.64zM229.812 62.6025c89.2051 0 161.776 72.5703 161.781 161.786c0 89.2061 -72.5762 161.782 -161.781 161.782c-89.2061 0 -161.782 -72.5762 -161.782 -161.782c0 -89.2109 72.5762 -161.786 161.782 -161.786z
M127.836 211.589v25.6006h203.945v-25.6006h-203.945z" />
    <glyph glyph-name="uniF118" unicode="&#xf118;" 
d="M295.931 370.345h-166.226v-305.495h254.295v219.612zM306.345 395.945v0l103.255 -100.695v-256h-305.495v356.695h202.24zM155.146 167.506c5.29883 0.942383 12.4824 1.64355 22.1338 1.64355c10.5977 0 18.2471 -2.2373 23.3115 -6.47656
c4.70996 -3.88672 7.77148 -10.1279 7.77148 -17.541c0 -7.53711 -2.35449 -13.6602 -6.71191 -17.8945c-5.8877 -5.77051 -14.833 -8.59668 -25.0781 -8.59668c-2.70801 0 -5.06348 0.112305 -7.06543 0.583984v-30.0186h-14.3613v78.2998zM169.508 130.657
c1.88379 -0.588867 4.12207 -0.711914 7.06543 -0.711914c10.8291 0 17.4238 5.41699 17.4238 14.6025c0 8.70898 -6.12402 13.4199 -16.1279 13.4199c-4.00391 0 -6.83008 -0.348633 -8.36133 -0.707031v-26.6035zM226.862 167.383
c6.47656 1.06055 14.4795 1.7666 23.0752 1.7666c14.833 0 24.96 -3.06152 32.2617 -9.17969c7.77148 -6.24121 12.4824 -15.7803 12.4824 -29.2002c0 -14.2432 -4.82812 -24.7236 -12.3652 -31.5537c-7.88477 -7.17871 -20.4844 -10.8291 -35.9062 -10.8291
c-8.35547 0 -14.7197 0.470703 -19.543 1.05957v77.9365h-0.00488281zM241.342 100.157c2.00195 -0.353516 5.06348 -0.353516 8.00781 -0.353516c18.8359 -0.112305 30.0234 10.3584 30.0234 30.4951c0.112305 17.4238 -10.0098 27.5508 -28.1396 27.5508
c-4.59277 0 -7.77246 -0.353516 -9.8916 -0.824219v-56.8682zM313.18 168.565h45.917v-11.8936h-31.4375v-21.8926h29.2002v-11.7764h-29.2002v-33.792h-14.4795v79.3545z" />
    <glyph glyph-name="uniF119" unicode="&#xf119;" 
d="M242.775 -12.7998v409.6h25.5996v-409.6h-25.5996zM49.0908 179.2v25.5996h412.958v-25.5996h-412.958z" />
    <glyph glyph-name="uniF11A" unicode="&#xf11a;" 
d="M472.32 36.4805h-433.92v279.039h125.255l48.6406 48.6406h80.5781l48.6406 -48.6406h130.806v-279.039zM64 62.0801h382.72v227.84h-115.804l-48.6406 48.6396h-59.3711l-48.6396 -48.6396h-110.265v-227.84zM255.288 82.8467
c-52.2441 0 -94.751 42.4961 -94.751 94.7461c0 52.249 42.5068 94.7559 94.751 94.7559c52.25 0 94.751 -42.502 94.751 -94.7559c0 -52.2549 -42.5117 -94.7461 -94.751 -94.7461zM255.288 248.474c-39.0859 0 -70.8857 -31.8008 -70.8857 -70.8867
s31.7949 -70.876 70.8857 -70.876c39.0811 0 70.8867 31.79 70.8867 70.876c0 39.0918 -31.8057 70.8867 -70.8867 70.8867z" />
  </font>
</defs>
</svg>
